#TITLE:Teh Noob Song;
#SUBTITLE:;
#ARTIST:Teh_Pwner;
#TITLETRANSLIT:;
#SUBTITLETRANSLIT:;
#ARTISTTRANSLIT:;
#CREDIT:;
#BANNER:noob.png;
#BACKGROUND:noob-bg.png;
#LYRICSPATH:noob.lrc;
#CDTITLE:;
#MUSIC:teh_pwnerer-teh_noob_song.mp3;
#OFFSET:-0.120;
#SAMPLESTART:40.120;
#SAMPLELENGTH:12.000;
#SELECTABLE:YES;
#BPMS:0.000=150.000;
#STOPS:;
#BGCHANGES:;
// cache tags:
#FIRSTBEAT:0.000;
#LASTBEAT:355.833;
#SONGFILENAME:Songs/Music V.I.P ^_^/noob song/noob.sm;
#HASMUSIC:1;
#HASBANNER:1;
#MUSICLENGTH:143.885;
// end cache tags

//---------------dance-single - ----------------
#NOTES:
     dance-single:
     :
     Challenge:
     8:
     0.623,0.618,0.174,0.285,1.000,561.000,25.000,41.000,0.000,49.000:
0010
0000
0000
0000
0000
0000
0000
0100
0000
0000
0000
0001
0000
0000
0000
0010
0000
0000
0000
0000
0000
0000
0000
0100
,
0000
0000
0000
0001
0000
0000
0010
0000
0000
0000
0000
0000
0000
0000
0000
0000
0000
1000
0000
0000
0000
0000
0010
0000
,
0000
0000
0000
0001
0000
0000
0000
0000
0001
0000
0000
0000
0200
0000
0000
0000
0000
0000
0000
0000
0000
0000
0000
0000
,
0000
0000
0000
0000
0000
0000
0300
0000
0000
0010
0000
0000
0000
0100
0000
0000
0001
0000
0000
0000
0010
0000
0000
0001
,
0000
0000
0000
1000
0000
0010
0000
0000
0000
0000
0100
0000
0000
0001
0000
0000
2000
0000
0100
0000
0001
0000
0000
0010
,
0000
0100
0000
0000
0001
0000
0000
0010
0000
0000
0000
0100
0001
3000
0000
0000
0100
0000
0010
0000
0000
0000
1000
0000
,
0001
0000
0000
0000
0100
0000
0010
0000
1000
0000
0000
0000
0000
0101
0000
0000
0000
0000
0200
0000
0000
0000
0000
0000
,
0000
0000
0000
0000
0000
0000
0000
0000
0010
0000
0000
0300
0000
0000
0000
0001
0000
0000
0000
0000
0010
0000
0001
0000
,
0000
0000
0100
0000
0000
0001
0000
0000
0000
1000
0000
0000
0000
0000
0000
0000
0000
0000
0000
0000
0000
0001
0000
0000
,
0100
0000
0000
0000
0010
0000
0000
1000
0000
0000
0000
0001
0000
0100
0000
0000
0000
0010
0000
0000
0000
0000
0000
0001
,
0000
0100
0000
0000
0000
0010
1000
0000
0000
0000
0000
0010
0000
0100
0000
0000
0000
0001
0000
0010
0000
0000
0000
0000
,
0001
0000
0010
0000
0000
0000
0001
0000
0010
0000
0000
0000
0000
0100
1000
0000
0000
0000
0010
0000
0000
0000
0000
0001
,
0000
0000
0100
0000
0000
0000
0000
0000
0000
0100
0000
0000
0000
0000
0000
0001
0000
0010
0000
0000
0000
0000
0000
0010
,
0000
0000
0000
0000
0100
0000
0001
0000
0000
1000
0001
0000
0100
0000
0000
0000
0000
0010
1000
0000
0000
0000
0000
0100
,
0010
0000
0000
0000
0000
0010
0000
0000
0100
0000
0000
0000
0100
0000
1000
0000
0000
0000
0010
0000
0100
0000
0000
0001
,
0200
1000
0000
0010
0000
0000
0000
1000
0001
0000
0000
0000
0000
1000
0000
0010
0000
0000
0000
1000
0000
0001
0000
0000
,
0300
0000
0000
0000
0000
0000
0101
0000
0001
0100
0000
0010
,
1000
0000
0000
0000
0000
0100
0001
0000
0000
0200
0000
0000
0000
0000
0000
0000
0000
0000
0000
0000
0000
0000
0000
0000
,
0000
0000
0300
0000
0000
0001
0000
0000
0100
0000
0000
0000
0010
0000
1000
0000
0000
0000
0000
0000
0100
0000
0000
0000
,
0000
1000
0000
0000
0010
0000
0000
0100
0000
0000
0001
0000
0000
0000
0010
1000
0002
0000
0000
0000
0010
0000
0100
0000
,
0000
0000
0010
0000
1000
0000
0003
0000
0000
0100
0001
0000
0000
0000
0100
0000
0010
0000
0000
0000
0000
1000
0000
0010
,
0000
0000
0000
0100
0000
0001
1000
0000
0000
0000
0000
0100
0000
1000
0000
0000
0001
0200
0000
0010
0000
0000
0000
1000
,
0000
0000
0000
0000
0000
1000
0300
0000
0000
0000
0000
0010
0000
0000
0001
0000
0000
0000
0010
0000
0100
0000
0000
0000
,
0000
0000
0001
0000
0000
0000
0000
0010
0000
0001
0000
0000
0000
0100
0000
0000
1000
0000
0000
0000
0210
0000
0000
0000
,
0001
0000
0000
0000
0010
0000
0000
0000
0000
0000
0000
0000
0310
0000
0000
0000
0000
0010
0001
0000
0000
0000
0000
1000
,
0000
0000
0000
0000
0000
0100
0000
0000
0000
0000
0000
0010
0000
0001
0000
0000
0000
0000
0100
0000
1000
0000
0000
0000
,
0000
0010
1000
0000
0000
0000
0000
0100
0000
1000
0000
0000
0000
0010
0000
0000
0100
0000
0000
0000
0001
0000
0000
1000
,
0000
0000
0000
0000
0000
0010
0000
0000
0000
0000
0100
0001
0000
0000
0000
0000
0010
0000
0100
0000
0000
0000
0000
1000
,
0000
0010
0000
0000
0000
0000
0001
0000
0010
0000
0000
0000
0001
0000
0100
0000
0000
0000
0000
0010
0000
1000
0000
0000
,
0000
0000
0000
0100
0001
0000
0000
0000
0000
0100
0000
0010
0000
0000
1000
0000
0010
0010
0000
0000
0000
0000
0000
0000
,
0100
0000
0000
0001
0000
0022
0000
0000
0000
0000
0000
0000
,
0000
0000
0033
0000
0000
0000
0000
0000
0100
0000
0000
0000
0000
0010
0000
0000
0000
0000
0000
1000
0000
0000
0100
0000
,
0000
0001
0000
0000
0010
0000
0000
0000
0001
0000
2200
0000
0010
0000
0000
0000
0001
0000
0000
0000
0000
0010
0000
0001
,
0000
0000
0000
0000
0000
3310
0000
0000
0000
0000
0100
0000
0001
0000
0000
0000
0000
1000
0000
0000
0000
0000
0010
0000
,
0000
0100
0000
0000
0000
0000
0000
0010
0000
0000
0000
0000
0100
0000
0001
0000
0000
0000
0020
0000
0000
0000
0000
0000
,
0000
0000
0000
0000
0000
0000
0000
0000
0000
0030
0000
0000
0000
0000
0001
0000
0100
0000
0000
0000
0010
0000
1000
0000
,
0000
0000
0000
0000
0000
0100
0000
0000
0000
1000
0000
0010
0000
0000
0000
1000
0000
0000
0100
0000
0000
0000
0000
0220
,
0000
0000
0000
0000
0000
0001
0000
1000
0000
0000
0000
0000
0001
1000
0000
0330
0000
0000
0001
0000
0110
0000
1000
0000
,
0001
0000
0110
1000
0000
0001
0010
0000
0100
1000
0001
0010
0000
0100
1000
0001
0010
0000
0000
0000
0000
0000
0100
0000
,
0000
0000
0020
0000
0000
0000
0000
0000
0000
0000
0000
0000
0000
0000
0000
0000
0030
0000
0000
0000
1000
0000
0000
0100
,
0000
0000
0000
0001
0000
0000
0010
0000
0000
0000
0000
0001
0000
0000
0000
0000
0000
0100
0000
0010
0000
0000
0000
0000
,
0000
0000
0000
0000
0000
0000
0000
0000
1000
0000
0000
0000
0000
0000
0000
0100
0000
0000
0000
0001
0000
0000
0000
0000
,
0000
0000
0010
0000
0000
0000
0000
0000
0000
0100
0000
0000
0000
0000
0000
0001
0000
0010
0000
0000
0000
0000
0001
0000
,
0100
0000
0000
0000
0000
0001
0000
0000
0000
0000
0000
0000
0000
0001
0000
0000
0000
0000
0000
0010
0000
0000
0000
0000
,
0000
1000
0000
0000
0000
0000
0000
0000
0100
0000
0000
0000
0000
0000
0001
0000
0000
0000
0000
0000
0000
0010
0000
0000
,
0000
0000
0000
0100
0000
0000
0000
0000
0000
0000
1000
0000
0000
0000
0000
0000
0010
0000
0000
0000
0000
0000
0000
0100
,
0000
0000
0000
0000
0000
0000
0001
0000
0000
0000
0000
0000
0000
0010
0000
0000
0000
0000
0000
0001
0000
0000
0000
0000
,
0000
0000
0100
0000
0000
0000
0000
0000
0000
0010
0000
0000
0000
0000
0000
1000
0000
0000
0000
0000
0000
0001
0000
0100
,
0000
0000
0000
0000
0000
0010
0000
0000
0000
0000
0000
0000
1000
0000
0000
0000
0000
0000
0001
0000
0000
0000
0000
0000
,
0000
0100
0000
0000
0000
0000
0000
0010
0000
0000
0000
0000
0000
1000
0000
0001
0000
0000
0000
0000
0100
0000
0000
0000
,
0000
0000
0000
0010
0000
0000
0000
0000
0000
1000
0000
0000
0000
0000
0000
0000
0000
0000
0000
0000
0000
0000
0001
0000
,
0000
0000
0000
0100
0000
0001
0000
0000
0000
0010
0000
0001
0000
0000
0000
0100
0000
0000
0010
0000
1000
0000
0000
0000
,
0000
0001
0000
0000
0000
0220
0000
0001
0000
1000
0000
0000
0001
0000
1000
0000
0000
0000
0000
0001
1000
0000
0000
0330
,
0000
0000
0000
0001
0000
0000
0000
0010
0000
0000
0001
0000
0000
0100
0000
0010
0000
0000
0000
1000
0000
0000
0100
0000
,
0000
0000
1000
0000
0010
0000
0000
0000
0000
0220
0001
0000
0000
1000
0000
0000
0001
0000
1000
0000
0000
0000
0000
0001
,
0000
1000
0300
0030
0000
0001
1000
0000
0000
0000
0000
0000
0010
0000
0100
0000
0000
0000
0001
0000
1000
0000
0000
0000
,
0000
0000
0001
0000
0000
0000
0000
0000
0100
0000
0000
0000
0000
0010
0000
1000
0000
0000
0000
0000
0000
0001
0000
0000
,
0000
0000
0100
0000
0000
0000
0010
0000
1000
0001
0000
0100
,
0010
0000
0000
0000
0000
0010
0000
0001
0000
0000
0000
0100
0000
0000
2002
0000
0000
0000
0000
0010
0100
0000
0000
0000
,
0000
0010
0000
0100
0000
0000
0000
0000
0010
0000
0100
0000
0000
0000
0010
3000
0103
0000
0000
0000
0000
0001
0000
1000
,
0000
0000
0000
0000
0010
0000
0100
0000
0000
0000
0001
0000
0000
0010
0000
0000
0000
0000
0000
0100
0000
0000
0000
0001
,
0000
0000
0010
0000
0000
0000
1000
0000
0000
0100
0000
0000
0000
0010
0000
1000
0000
0000
0000
0002
0000
0010
0000
0000
,
0000
1000
0000
0000
0010
0000
0000
0000
0003
0100
0000
0010
0000
0000
0000
1000
0000
0001
0000
0000
0000
0000
0100
0000
,
0010
0000
0000
0000
0001
0000
0000
0100
0000
0000
0000
0010
0000
1000
0000
0000
0000
0100
0000
0000
1000
0000
0000
0000
,
0020
0000
0001
0000
0000
0000
0000
0100
0000
0000
0000
0030
1000
0000
0000
0000
0000
0000
0000
0100
0000
0010
0000
0001
,
0000
0100
0000
0000
0010
0000
1000
0000
0000
0010
0000
0100
0000
0000
0001
0000
0000
0020
0001
0000
0100
0000
0000
0000
,
0000
1000
0001
0000
0030
0000
0000
0000
0000
0000
0000
0000
1100
0000
0011
0000
0000
1000
0000
0101
0000
0000
0110
0000
,
0000
1010
0000
0001
0001
0000
0000
0000
0200
0000
0000
0000
0000
0000
0000
0000
0010
0000
0000
1000
0000
0001
0000
0000
,
0000
0000
0000
0300
0000
0000
0000
0000
0000
0000
0000
0010
0000
1000
0000
0100
0000
0000
1000
0000
0000
0010
0000
0000
,
0000
0000
0001
0000
0000
0000
1000
0000
0010
0000
0000
0000
0100
0000
0000
0001
0000
0000
0000
0000
0200
0000
0000
0000
,
0000
0000
0000
0000
0000
0000
0000
0000
0000
0000
0000
0000
0300
0000
0000
0000
0000
0010
0001
0000
0000
1000
0100
0100
,
0010
0000
0000
1000
1000
0000
0100
0000
0000
0010
1000
0000
0100
0001
0000
0000
1010
0000
0100
0100
0000
0000
0000
1002
,
0000
0000
0000
0000
0010
0000
0000
1000
0000
0010
0000
0000
0000
0000
0100
0000
0013
0000
0000
0000
1000
0000
0000
0100
,
0000
0001
0000
0000
0000
0000
0000
0000
0000
0100
0000
0000
0010
0000
1000
0000
0000
0010
0100
0000
0000
0000
0000
0001
,
0000
0100
0000
0000
0000
0010
0000
2000
0000
0000
0000
0100
0000
0001
0000
0000
0010
0000
0000
0000
0000
0001
0000
0000
,
3000
0100
0000
0010
0001
1000
0000
0000
0000
0100
0010
0000
0000
0000
0000
0100
0000
0001
0000
0000
0000
0010
0000
0000
,
0001
0000
0000
0000
0100
0000
0022
0000
0000
0000
0000
0000
0000
0000
0000
0000
1000
0100
0000
0000
0000
1000
0000
0000
,
0100
0000
0000
1000
0000
0000
0100
0000
0033
1000
0000
0000
0100
0000
0000
0000
0001
0000
0100
0000
0000
0000
0010
0000
,
0000
1000
0000
0000
0000
0000
0010
0000
0000
0000
0000
0000
0000
0000
0000
0001
0000
0000
0100
0000
0000
0000
0010
0000
,
1000
0000
0000
0000
0000
0001
0000
0010
0000
0000
0000
0001
0000
0000
0000
0002
0000
1000
0000
0000
0100
0000
0000
0000
,
0000
1000
0000
0010
0000
0000
0000
0100
0000
0010
0000
0000
0000
1000
0000
0100
0000
0000
0000
0003
1000
0000
0000
0100
,
0000
0000
0000
1000
0000
0010
0000
0000
0000
1000
0000
0001
0000
0000
0000
0000
2000
0100
0000
0000
0000
0000
0000
0000
,
0000
0110
0000
0000
0000
0000
0000
0001
0000
0000
0000
0000
0000
0110
0000
0000
0000
0000
0000
0001
0000
0000
0100
0000
,
0000
0000
0010
3000
0000
0000
0002
0000
0000
1000
0000
0000
0000
0000
0000
0000
0110
0000
0000
0000
0000
0000
1000
0000
,
0003
0000
0000
2000
0001
0000
0000
0000
0000
0000
0100
0000
0010
0000
0000
0000
0010
0000
0000
0001
0000
0000
0000
0110
,
0000
3001
0000
0002
0000
0000
0000
0000
1100
0000
0000
0000
0000
0003
0200
0001
0000
0000
0000
0010
0300
0100
0000
0000
,
0000
0000
0010
0000
1000
0000
0000
0020
0000
0000
0100
0000
0000
0000
0000
1000
0000
0031
0000
0000
0000
1000
0002
0010
,
0000
0000
0000
1000
0000
0100
0000
0000
0003
0000
1000
0000
0000
0001
0000
0000
0000
0202
0000
1000
0000
0010
0000
1000
,
0000
0010
0000
1000
0000
0010
0000
1000
0000
0010
0000
1000
0000
0010
0303
1000
0000
0010
0000
1000
0000
0010
0000
1000
;
